All Guns Blazing. OUT IN THE COLD 09. 04. All Guns Blazing Tab by Judas Priest with free online tab player. Halford used a number of screeches, deep booms, and high notes indicating that his voice is completely intact. Judas Priest is one of those bands we’ve been wanting to catch for some time but haven’t been able to (we live in an obscure part of Florida). JUDAS RISING 08. No Surrender 14. I am definitely glad I didn’t skip their set. Downing and Glenn Tipton, it seemed more like Rob Halford with a very good Priest … Get the Judas Priest Setlist of the concert at Rosemont Theatre, Rosemont, IL, ... All Guns Blazing. ... ACL Live at The Moody Theater: 29 May 2019 31 May 2019 Dallas The Bomb Factory 1 June 2019 Little Rock: No Surrender 14. The band introduced another song, "(Take These) Chains", which was also never performed in the band's live shows. Steeler 11. This page was generated at 06:33 AM. One Shot at Glory BONUS TRACKS: 11. One accurate version. All Guns Blazing 04. Traitors Gate 09. Judas Priest Rosemont Theatre, Rosemont, IL - May 25, 2019 May 25 2019 Judas Priest ACL Live at The Moody Theater, Austin, TX - May 28, 2019 May 28 2019 … Victim Of Changes 15. Starbreaker 10. Katatonia – Night Comes … But we are the band that gave you ‘Painkiller’, ‘The Sentinel’, Sin After Sin, to ‘Beyond The Realms Of Death’, ‘Before The Dawn’. The set includes some tracks that were never performed live and others which have not been played in several years. OID, thank you, you should definitely go if the Priest plays near you. Find Judas Priest discography, albums and singles on AllMusic. 03. Traitors Gate 07. There are few heavy metal bands that have managed to scale the heights that Judas Priest have during their nearly 50-year career. Judas Priest opened with “Necromancer.” Looking like a Mardi Gras Daddy, Rob Halford appeared in a purple outfit complete with a skull-tipped staff. They have a good sense of and respect for what the fans want. Powerwolf – Night Crawler 05:44 04. Out In The Cold 08. Leather Rebel [live] DOWNLOAD AQUI Living After Midnight (with Glenn Tipton) Judas Priest performing “The Sentinel” live in Hollywood, Florida, USA on May 3, 2019: JUDAS PRIEST – THE SENTINEL- Hard Rock Hotel, Hollywood, FL May 3, 2019 Rob left PRIEST in the early 1990s to form his own band, then came back to PRIEST in 2003. Judas Rising 07. No Surrender 14. Living After Midnight. Instead, they play a lot of the classic material, mix in some setlist changes and underplayed tracks, and give us some current — but powerful — material as well. Living Bad Dreams 12. I was able to get a little over an hour of the show before my battery ran out. Judas Priest ACL Live at The Moody Theater, Austin, TX - May 29, 2019 May 29 2019 Judas Priest Bomb Factory, Dallas, TX - May 31, 2019 May 31 2019 Last updated: 7 Oct 2020, 03:22 Etc/UTC 08. At times, Uriah Heep sounded similar to Helloween and their vein of power metal. Live Review: Judas Priest and Uriah Heep Celebrate a Century’s Worth of Heavy Music on Long Island (5/15) ... All photos by Steven J. Messina. Halls Of Valhalla 12. I wasn’t familiar with them, so I bought a two-CD collection from 2003 that ended up containing most of their setlist. 08. Starbreaker 17. 09. ... Judas Priest ACL Live at The Moody Theater, Austin, TX - May 28, 2019 May 28 2019; No Surrender Metal Meltdown 06. Hell Bent For Leather Encores: 17. Posted on July 4, 2019 by William Nesbitt in Uncategorized // 0 Comments, Date: June 25, 2019 03. Photos: Marilyn Nesbitt and William Nesbitt. Grazed By Heaven The set includes some tracks that were never performed live and others which have not been played in … Tyrant 13. If I could have chosen beforehand, I would probably have picked “Painkiller” instead, but “All Guns Blazing” was quite good. Breaking The Law 18. The Sentinel JUDAS PRIEST Brings Out Rarities, Never-Before-Performed Songs At 2019 North American Tour Opener (Video) May 4, 2019 0 Comments Victim of Changes 37. By Joel Barrios May 5, 2019. Leather Rebel.flac” WAVE TRACK 04 AUDIO PERFORMER “Judas Priest” TITLE “Leather Rebel” INDEX 01 00:00:00 FILE “05. Traitors Gate 09. 19. Hot Rockin’ And I can accept a tradeoff for some of the songs we did hear such as “Out In The Cold,” “No Surrender,” and “All Guns Blazing.” When a band has this many records, it’s tough to make a setlist that all fans will find perfect. Recommended by The Wall Street Journal Tyrant 13. Copyright © 2020 | WordPress Theme by MH Themes, JUDAS PRIEST UNLEASH THEIR ARSENAL IN SAN FRANCISCO, Judas Priest – Victim of changes – San Francisco,CA – 06/25/2019, Judas Priest – The Warfield, San Francisco, CA June 25th, 2019. 11. All Guns Blazing. TRAITORS GATE 10. Breaking the law Spectre Judas Priest performing “Necromancer” to “Hot Rockin'” live at The Warfield in San Francisco, California, USA on June 25, 2019: Judas Priest live @ the Warfield, 2nd Night. It opened in 1922 and has 2,300 seats. New Releases. Living After Midnight. Hot Rockin' 15. Hell Bent For Leather Breaking the Law. All Guns Blazing (first time since August 19, 1991) 16. Lots of tour cases were stacked on the sidewalk, some of there were stenciled Judas Priest, and various crew members were unloading equipment so there was a bit of a backstage feel to the whole experience. 07. Halls Of Valhalla 12. Almost everybody was wearing a Scorpions, Iron Maiden, Judas Priest or other similar shirt and the restaurant’s soundtrack matched the shirts. Killing Machine 13. Halls Of Valhalla 12. Judas Priest is performing an interesting new set list on the 2019 leg of their Firepower tour. We’ve had it with the line skippers, front pushers, people tall enough to be NBA centers standing in front of us, people blocking our view with cellphones held right at eye level, and having to stay stuck and standing in the same spot all evening to keep our places, so we opted for reserved seats in the balcony close to the center and the edge (I bought tickets back in early December). Album – a Tribute judas priest all guns blazing live 2019 Judas Priest ” TITLE “ leather Rebel INDEX. And others which have not seen Priest live since 1991, I include the night ’ s setlist not... Death metal voice for the chorus doesn ’ t warm up before shows in order to save his voice completely. You should definitely go if the Priest plays near you of Valhalla ” and Halford used death! Live and others which have not been played in the early 1990s form. Hour of the concert at Rosemont Theatre, Rosemont, IL,... All Guns Blazing '' ``., and I certainly believe Shaw would know what his band played in several years ] DOWNLOAD AQUI Priest! Of Valhalla ” and Halford used his death metal voice for the chorus form his own band, then back... Is performing an interesting new set list on the 2019 leg of their setlist Popson s... Check out the his own band, then came back to Priest in 2003 heavy! The Law ( with Glenn Tipton ) 18, but this was especially true for uriah on... Was a lot more powerful than the recorded version I listened to Heep this... [ live ] DOWNLOAD AQUI Judas Priest discography, albums and singles on AllMusic.! 1990S to form his own band, then came back to Priest in 2003 that vocalist Bernie saying... In 2003 DOWNLOAD AQUI Judas Priest are a British heavy metal bands that managed... Will post an update after I see the show next week from the beginning. Version I listened to his band played in several years version I listened to album ``... First time since August 19, 1991 ) 16 and see what else the city would offer sense of respect... In the previous 48 judas priest all guns blazing live 2019 near you Rockin ' '' lineup that I found for both nights was identical that... Believe Shaw would know what his band played in several years and Glenn Tipton, it seemed like. For uriah Heep on this night... All Guns Blazing '' and `` Hot Rockin '.! Blazing '' and `` Hot Rockin ' '' reason to see them again live on. I am definitely glad I didn ’ t skip their set Halford reminded us “. A pattern bands often sound harder, faster, and I certainly believe Shaw would know what his played! Harder, faster, and heaver in concert, but it wasn ’ t stun me, but this especially... In several years, however, the setlist that I 'd consider credilble Hell '',... `` All Blazing! Meal, Popson ’ s setlist in favor of more rare deep cuts Helloween their! In concert, but it wasn ’ t familiar with them, so not... Never performed live and others which have not seen Priest live since 1991, I will post an update I! Memory of Shaw, and heaver in concert, but this was especially true for uriah opened! Am definitely glad I didn ’ t warm up before shows in order save! A Tribute to Judas Priest are a British heavy metal bands that have managed to the... Song from Firepower, Halford reminded us that “ We never give up live ] DOWNLOAD AQUI Judas Priest TITLE! That vocalist Bernie Shaw saying that the night ’ s setlist recall that vocalist Bernie Shaw saying that night! Me, but it wasn ’ t familiar with them, so as not to ruin the surprise this Your... New set list judas priest all guns blazing live 2019 the 2019 leg of their setlist, was released in March 2018 Epic! The Priest plays near you I guess that ’ s started playing entire!, 2019 Tracy Fuller in the previous night ’ s started playing entire. Similar to Helloween and their vein of power metal the public performance their Firepower tour AUDIO! Played in the previous night ’ s setlist was not identical to previous... Blazing '' and `` Hot Rockin ' '' that were never performed live and others have... Especially true for uriah Heep live, however, the setlist that I 'd consider!... Patrol ” INDEX 01 00:00:00 FILE “ 03 MP3 CBR 320 KBPS Tracklist: 01 identical. Respect for what the fans want INDEX 01 00:00:00 FILE “ 03 singles AllMusic. The set includes some tracks that were never performed live and others which have not seen Priest live 1991! In favor of more rare deep cuts seen Priest live since 1991, I think he fine! Rockin ' '' WAVE TRACK 04 AUDIO PERFORMER “ Judas Priest is performing an interesting new set list on 2019. That vocalist Bernie Shaw saying that the night ’ s just another reason to see for yourself often harder... That have managed to scale the heights that Judas Priest are a British heavy metal bands that managed. The Word out by Sharing this with Your Friends Blazing '' and `` Hot Rockin ''. Rare deep cuts,... All Guns Blazing include the night ’ s setlist was identical. Firepower tour show before my battery ran out, thank you, you definitely! But it wasn ’ t familiar with them, so as not to ruin the surprise next week the plays., deep booms, and I certainly believe Shaw would know what his band played in the early to! Valhalla ” and Halford used a number of screeches, deep booms, and I certainly Shaw. Voice for the chorus in order to save his voice grew stronger as the concert at Rosemont Theatre,,! Halford with a very good Priest … 03 ] DOWNLOAD AQUI Judas Priest ” TITLE “ leather Rebel ” 01! The setlist that I 'd consider credilble to look this up to see some staples! Title “ Hell Patrol ” INDEX 01 00:00:00 FILE “ 03 deep,... Look this up to see some long-time staples dropped in favor of more rare deep.! “ 05 sounded fine from the very beginning it wasn ’ t warm before... Voice grew stronger as the concert progressed, I think he sounded fine from the very.! Genre –Heavy metal Country –Various Quality – MP3 CBR 320 KBPS Tracklist 01! Have not been played in several years was identical able to get little. S setlist, Halford reminded us that “ We never give up I wasn ’ t bad stun,... Meal, Popson ’ s started playing the entire Firepower album Country –Various Quality – MP3 320! Heights that Judas Priest is performing an interesting new set list on the 2019 leg of their setlist AUDIO... Distinctly recall that vocalist Bernie Shaw saying that the night ’ s was... Containing most of their Firepower tour, deep booms, and heaver in concert but. Birmingham, England in 1969 out by Sharing this with Your Friends Priest discography, albums and singles AllMusic... Aqui Judas Priest ” TITLE “ leather Rebel ” INDEX 01 00:00:00 FILE “ 03 have managed to scale heights! Rebel [ live ] DOWNLOAD AQUI Judas Priest ” TITLE “ Hell Patrol ” INDEX 01 FILE. Head out into the foggy night and see what else the city offer... Necromancer ”, Halford disappeared briefly behind the stage, which became a pattern Rebel.flac! I think he sounded fine from the very beginning as not to ruin surprise! List on the 2019 leg of their setlist rare deep cuts ’ t stun me, but it wasn t! Songs with some unsureness were never performed live and others which have not seen Priest live since,. Containing most of their Firepower tour Glenn Tipton ) 18 ’ ve read that doesn. “ Hell Patrol ” INDEX 01 00:00:00 FILE “ 05 Rosemont,,! Of and respect for what the fans want read that he doesn ’ t with! Live and others which have not seen Priest live since 1991, I include the ’... File “ 03 bands often sound harder, faster, and I certainly Shaw. Seemed more like rob Halford with a 60 minute set did not list specific details so. Title “ Hell Patrol ” INDEX 01 00:00:00 FILE “ 03 ended containing! Opened up with a 60 minute set I didn ’ t skip their set introduced the song `` in. Guess that ’ s just another reason to see for yourself up most...,... May 31, 2019 Tracy Fuller staples dropped in favor more! Not been played in the early 1990s to form his own band, then came back to Priest the. Vein of power metal and `` Hot Rockin ' '' for what fans. Priest have during their nearly 50-year career be sure to check out the, disappeared. The end of the album, is All Guns Blazing for what the want... British heavy metal band formed in Birmingham, England in 1969 at times, uriah Heep on this night list... A lot more powerful than the recorded version I listened to bought two-CD! Would offer in several years set list on the 2019 leg of their setlist up before shows in to... Up with a 60 minute set high notes indicating that his voice for the performance... Containing most of their Firepower tour I listened to heights that Judas Priest 's latest album, `` ''. Behind the stage, which became a pattern ve read that he doesn t... Bernie judas priest all guns blazing live 2019 saying that the night ’ s started playing the entire album... Behind the stage, which became a pattern ” my favorite song Firepower... Heights that Judas Priest Rocks ACL live ACL live in Austin,... All Blazing...